Minions Mini Movies Pack 2017 720p BluRay x264 AAC (6 Ch) (download torrent) - TPB

Details for this torrent 

Minions Mini Movies Pack 2017 720p BluRay x264 AAC (6 Ch)
Type:
Video > Movie clips
Files:
12
Size:
2 GiB (2148613831 Bytes)
Spoken language(s):
English
Texted language(s):
English
Tag(s):
Best Uploader
Uploaded:
2016-12-27 14:37:27 GMT
By:
Dragon786
Seeders:
23
Leechers:
6
Comments
3  

Info Hash:
62763352245BB4C686CA0332A5ABF9C3DFDCED50




(Problems with magnets links are fixed by upgrading your torrent client!)
Minions Mini Movies Pack 2017 720p BluRay x264 AAC (6 Ch) [Dragon Movies]

PLEASE SEED !

PLEASE CONTINUE TO SEED FOR AS LONG AS POSSIBLE !

Total Size : 2.00 GiB

---------------------------------Dragon Movies---------------------------------

General
Format                      : MPEG-4
Format profile              : Base Media
Codec ID                    : isom (isom/avc1)
File size                   : Different of Every Movie
Duration                    : Different of Every Movie
Overall bit rate mode       : Variable
Overall bit rate            : 7 058 kb/s

Video
ID                          : 1
Format                      : AVC
Format/Info                 : Advanced Video Codec
Format profile              : [email protected]
Format settings, CABAC      : Yes
Format settings, ReFrames   : 3 frames
Codec ID                    : avc1
Codec ID/Info               : Advanced Video Coding
Duration                    : 3 min 45 s
Bit rate mode               : Variable
Bit rate                    : 6 737 kb/s
Nominal bit rate            : 10.8 Mb/s
Maximum bit rate            : 25.0 Mb/s
Width                       : 1 280 pixels
Height                      : 720 pixels
Display aspect ratio        : 16:9
Frame rate mode             : Constant
Frame rate                  : 23.976 (24000/1001) FPS
Color space                 : YUV
Chroma subsampling          : 4:2:0
Bit depth                   : 8 bits
Scan type                   : Progressive
Bits/(Pixel*Frame)          : 0.305
Stream size                 : 181 MiB (95%)
Writing library             : x264 core 104 r1683 62997d6

Audio
ID                          : 2
Format                      : AAC
Format/Info                 : Advanced Audio Codec
Format profile              : LC
Codec ID                    : 40
Duration                    : 3 min 45 s
Bit rate mode               : Variable
Bit rate                    : 317 kb/s
Maximum bit rate            : 334 kb/s
Channel(s)                  : 2 channels
Channel(s)_Original         : 6 channels
Channel positions           : Front: L C R, Side: L R, LFE
Sampling rate               : 48.0 kHz
Frame rate                  : 46.875 FPS (1024 spf)
Compression mode            : Lossy
Stream size                 : 8.52 MiB (4%)
Language                    : English

---------------------------------Dragon Movies---------------------------------

PLEASE SEED AFTER DOWNLOAD !

Thanks!

#First Minions Mini Movie Pack on TPB

Comments

Interesting that the uploader asks us to "seed as long as possible" and then disappears before anyone gets the whole torrent. Let's hope they return so everyone can complete.
Alright, I retract my earlier comment. Took a while for uploader to come back, but at least they did! Thanks!