Geronimo on TV - Geronimo Stilton ~=Dragon Videos=~ (download torrent) - TPB

Details for this torrent 

Geronimo on TV - Geronimo Stilton ~=Dragon Videos=~
Type:
Video > Movie clips
Files:
1
Size:
121.72 MiB (127628750 Bytes)
Spoken language(s):
English
Texted language(s):
English
Tag(s):
Dragon786
Uploaded:
2016-12-29 14:22:58 GMT
By:
Dragon786
Seeders:
0
Leechers:
2
Comments
0  

Info Hash:
A52677DA343CFEF8E06276E50AAC7BDFC0F75D2F




(Problems with magnets links are fixed by upgrading your torrent client!)
PLEASE SEED!

PLEASE CONTINUE TO SEED FOR AS LONG AS POSSIBLE!

Info :

---------------------------------Dragon Videos---------------------------------

Format : MPEG-4 
Format profile : Base Media / Version 2 
Codec ID : mp42 (mp42/isom/avc1) 
File size : 122 MiB 
Duration : 23 min 2 s 
Overall bit rate mode : Variable 
Overall bit rate : 739 kb/s 

Video 
ID : 1 
Format : AVC 
Format/Info : Advanced Video Codec 
Format profile : [email protected] 
Format settings, CABAC : No 
Format settings, ReFrames : 2 frames 
Codec ID : avc1 
Codec ID/Info : Advanced Video Coding 
Duration : 23 min 2 s 
Bit rate : 640 kb/s 
Width : 480 pixels 
Height : 272 pixels 
Display aspect ratio : 16:9 
Frame rate mode : Constant 
Frame rate : 25.000 FPS 
Color space : YUV 
Chroma subsampling : 4:2:0 
Bit depth : 8 bits 
Scan type : Progressive 
Bits/(Pixel*Frame) : 0.196 
Stream size : 105 MiB (87%) 
Writing library : x264 core 112 
Color range : Limited 
Color primaries : BT.601 NTSC 
Transfer characteristics : BT.709 
Matrix coefficients : BT.601 

Audio 
ID : 2 
Format : AAC 
Format/Info : Advanced Audio Codec 
Format profile : LC 
Codec ID : 40 
Duration : 23 min 2 s 
Bit rate mode : Variable 
Bit rate : 96.0 kb/s 
Maximum bit rate : 166 kb/s 
Channel(s) : 2 channels 
Channel positions : Front: L R 
Sampling rate : 44.1 kHz 
Frame rate : 43.066 FPS (1024 spf) 
Compression mode : Lossy 
Stream size : 15.8 MiB (13%) 
Title : Stereo 
Language : English 

---------------------------------Dragon Videos---------------------------------

PLEASE SEED AFTER DOWNLOAD!