La.La.Land.2016.New.HDCAM.X264.AAC-MVGEE (download torrent) - TPB

Details for this torrent 

La.La.Land.2016.New.HDCAM.X264.AAC-MVGEE
Type:
Video > Movies
Files:
1
Size:
382.24 MiB (400808283 Bytes)
Info:
IMDB
Spoken language(s):
English
Texted language(s):
English
Tag(s):
La.La.Land la la land
Uploaded:
2017-01-12 02:33:22 GMT
By:
onlyoneclick
Seeders:
19
Leechers:
7
Comments
0  

Info Hash:
CAF041AE3A8867C092143E6BB4D14DA4D18A9BD4




(Problems with magnets links are fixed by upgrading your torrent client!)
La.La.Land.2016.New.HDCAM.X264.AAC-MVGEE
 
http://www.imdb.com/title/tt3783958/

Mia, an aspiring actress, serves lattes to movie stars in between auditions and Sebastian, a jazz musician, scrapes by playing cocktail party gigs in dingy bars, but as success mounts they are faced with decisions that begin to fray the fragile fabric of their love affair, and the dreams they worked so hard to maintain in each other threaten to rip them apart.

Year: 2016
Genres: Comedy, Drama, Musical
Director: Damien Chazelle
Writer: Damien Chazelle
Stars: Ryan Gosling, Emma Stone, Rosemarie DeWitt
MPA Rating: PG-13
Runtime: 2h 8min
Rating: 8.8

[img]http://i.imgur.com/VGI73IL.jpg[/img]
[img]http://i.imgur.com/nTrHMCp.png[/img]
[img]http://i.imgur.com/ViIKwIp.png[/img]
[img]http://i.imgur.com/bN7y4gw.png[/img]

Duration: 01:59:59.19, start: 0.021333, bitrate: 445 kb/s
Stream #0:0(und): Video: h264 (Main) (avc1 / 0x31637661), yuv420p, 640x260 [SAR 1:1 DAR 32:13], 306 kb/s, 29.97 fps, 29.97 tbr, 30k tbn, 59.94 tbc
Stream #0:1(und): Audio: aac (LC) (mp4a / 0x6134706D), 48000 Hz, stereo, fltp, 129 kb/s